Интернет магазин "Художественное вырезание лазером"

Регистрация

 » 

Register

(Рок, шансон) СП-Бабай - На середине жизни - 2007; APE (image + .cue) » forum1

Сообщение
 

(Рок, шансон) СП-Бабай - На середине жизни - 2007; APE (image + .cue)

 
(Рок, шансон) СП-Бабай - На середине жизни
 
pic
Страна: Россия
Жанр: Рок, шансон
Год выпуска: 2007
Формат: APE (image + .cue)
Битрейт аудио: lossless
Общая продолжительность звучания: 45:13
 
Трэклист:
1. Дорожная
2. Россиянин
3. Осень
4. Звериное начало
5. На середине жизни
6. Она поставила пластинку...
7. Мария
8. Ты лучше всех!
9. На море шторм
10. Сядем рядом
 
Питерская музыкальная группа СП Бабай, от рока до шансона.
Лидер группы, бард, рокер, поэт, писатель, художник, Михаил Новицкий.
Лучшая скрипка Петербурга - Татьяна Голубчик!
Ударные - Илья Ивахнов.
Бас - Леонид Синцов.
СП-Бабай - группа которая может всё! Smile
Отчёт EAC
Exact Audio Copy V0.99 prebeta 3 from 28. July 2007
 
Отчёт EAC об извлечении, выполненном 27. января 2008, 3:44
 
СП-Бабай / На середине жизни
 
Дисковод: ASUS DRW-1608P Adapter: 1 ID: 0
 
Режим чтения : Достоверность
Использование точного потока : Да
Отключение кэша аудио : Да
Использование указателей C2 : Нет
 
Комбинированное смещение чтения/записи : 0
Способность читать области Lead-in и Lead-out : Нет
Заполнение пропущенных сэмплов тишиной : Да
Удаление блоков с тишиной в начале и конце : Нет
При вычислениях CRC использовались нулевые сэмплы : Нет
Интерфейс : Установленный внешний ASPI-интерфейс
 
Выходной формат : Внутренние WAV-операции
Формат сэмплов : 44.100 Гц; 16 бит; стерео
 
TOC извлечённого CD
 
Трек | Старт | Длительность | Начальный сектор | Конечный сектор
---------------------------------------------------------------------
1 | 0:00.00 | 6:09.53 | 0 | 27727
2 | 6:09.53 | 1:10.01 | 27728 | 32978
3 | 7:19.54 | 5:45.45 | 32979 | 58898
4 | 13:05.24 | 4:09.53 | 58899 | 77626
5 | 17:15.02 | 4:44.12 | 77627 | 98938
6 | 21:59.14 | 3:19.18 | 98939 | 113881
7 | 25:18.32 | 6:43.69 | 113882 | 144175
8 | 32:02.26 | 4:13.02 | 144176 | 163152
9 | 36:15.28 | 3:21.47 | 163153 | 178274
10 | 39:37.00 | 5:36.71 | 178275 | 203545
 
Характеристики диапазона извлечения и сообщения об ошибках
 
Выбранный диапазон
 
Имя файла C:\Documents and Settings\Administrator\Мои документы\СП-Бабай - На середине жизни.wav
 
Пиковый уровень 100.0 %
Качество диапазона 99.9 %
CRC копии 55F9C1FE
Копирование... OK
 
Ошибок не произошло
 
Конец отчёта
Audiochecker
AUDIOCHECKER v2.0 beta (build 457) - by Dester - opdester@freemail.hu
~~~~~~~~~~~~~~~~~~~~~~~~~~~~~~~~~~
Started at: понедельник, 28. 01. 2008. - 20:11.54
1 file found
 
1 -===- C:\Documents and Settings\Administrator\Мои документы\СП-Бабай - На середине жизни.ape
Extracted successfully
Conclusion: this track is CDDA with probability 100%
Tempfile successfully deleted.
 
Finished at: понедельник, 28. 01. 2008. - 20:36.02 (operation time: 0:24.07)
Обложку можно скачать ТУТ


Cорри, обложки дня три не будет. Проблемы со здоровьем нарисовались Sad

Ещё один диск выложить ? Mr. Green
https://tomi.net.ru/forum/vt.php?t=636956
Добавлены обложки на оба диска...

Rambler's Top100 -0-